  0
SECTION
  2
HEADER
  9
$ACADVER
  1
AC1012
  9
$DWGCODEPAGE
  3
ANSI_1252
  9
$INSBASE
 10
0.0
 20
0.0
 30
0.0
  9
$EXTMIN
 10
5.032406225943777
 20
4.481957609794793
 30
0.0
  9
$EXTMAX
 10
8.216644188209635
 20
7.100926741860011
 30
0.0
  9
$LIMMIN
 10
0.0
 20
0.0
  9
$LIMMAX
 10
12.0
 20
9.0
  9
$ORTHOMODE
 70
     0
  9
$REGENMODE
 70
     1
  9
$FILLMODE
 70
     1
  9
$QTEXTMODE
 70
     0
  9
$MIRRTEXT
 70
     1
  9
$DRAGMODE
 70
     2
  9
$LTSCALE
 40
1.0
  9
$OSMODE
 70
     0
  9
$ATTMODE
 70
     1
  9
$TEXTSIZE
 40
0.09375
  9
$TRACEWID
 40
0.05
  9
$TEXTSTYLE
  7
STANDARD
  9
$CLAYER
  8
0
  9
$CELTYPE
  6
BYLAYER
  9
$CECOLOR
 62
   256
  9
$CELTSCALE
 40
1.0
  9
$DELOBJ
 70
     1
  9
$DISPSILH
 70
     0
  9
$DIMSCALE
 40
0.5208333333333334
  9
$DIMASZ
 40
0.18
  9
$DIMEXO
 40
0.0625
  9
$DIMDLI
 40
0.38
  9
$DIMRND
 40
0.0
  9
$DIMDLE
 40
0.0
  9
$DIMEXE
 40
0.18
  9
$DIMTP
 40
0.0
  9
$DIMTM
 40
0.0
  9
$DIMTXT
 40
0.18
  9
$DIMCEN
 40
0.09
  9
$DIMTSZ
 40
0.0
  9
$DIMTOL
 70
     0
  9
$DIMLIM
 70
     0
  9
$DIMTIH
 70
     1
  9
$DIMTOH
 70
     1
  9
$DIMSE1
 70
     0
  9
$DIMSE2
 70
     0
  9
$DIMTAD
 70
     0
  9
$DIMZIN
 70
     0
  9
$DIMBLK
  1

  9
$DIMASO
 70
     1
  9
$DIMSHO
 70
     1
  9
$DIMPOST
  1

  9
$DIMAPOST
  1

  9
$DIMALT
 70
     0
  9
$DIMALTD
 70
     2
  9
$DIMALTF
 40
25.4
  9
$DIMLFAC
 40
1.0
  9
$DIMTOFL
 70
     0
  9
$DIMTVP
 40
0.0
  9
$DIMTIX
 70
     0
  9
$DIMSOXD
 70
     0
  9
$DIMSAH
 70
     0
  9
$DIMBLK1
  1

  9
$DIMBLK2
  1

  9
$DIMSTYLE
  2
STANDARD
  9
$DIMCLRD
 70
     0
  9
$DIMCLRE
 70
     0
  9
$DIMCLRT
 70
     0
  9
$DIMTFAC
 40
1.0
  9
$DIMGAP
 40
0.09
  9
$DIMJUST
 70
     0
  9
$DIMSD1
 70
     0
  9
$DIMSD2
 70
     0
  9
$DIMTOLJ
 70
     1
  9
$DIMTZIN
 70
     0
  9
$DIMALTZ
 70
     0
  9
$DIMALTTZ
 70
     0
  9
$DIMFIT
 70
     3
  9
$DIMUPT
 70
     0
  9
$DIMUNIT
 70
     2
  9
$DIMDEC
 70
     2
  9
$DIMTDEC
 70
     2
  9
$DIMALTU
 70
     2
  9
$DIMALTTD
 70
     2
  9
$DIMTXSTY
  7
STANDARD
  9
$DIMAUNIT
 70
     0
  9
$LUNITS
 70
     2
  9
$LUPREC
 70
     4
  9
$SKETCHINC
 40
0.1
  9
$FILLETRAD
 40
0.5
  9
$AUNITS
 70
     0
  9
$AUPREC
 70
     0
  9
$MENU
  1
.
  9
$ELEVATION
 40
0.0
  9
$PELEVATION
 40
0.0
  9
$THICKNESS
 40
0.0
  9
$LIMCHECK
 70
     0
  9
$BLIPMODE
 70
     0
  9
$CHAMFERA
 40
0.5
  9
$CHAMFERB
 40
0.5
  9
$CHAMFERC
 40
1.0
  9
$CHAMFERD
 40
0.0
  9
$SKPOLY
 70
     0
  9
$TDCREATE
 40
2452796.537892974
  9
$TDUPDATE
 40
2452796.540530590
  9
$TDINDWG
 40
0.0026378009
  9
$TDUSRTIMER
 40
0.0026378009
  9
$USRTIMER
 70
     1
  9
$ANGBASE
 50
0.0
  9
$ANGDIR
 70
     0
  9
$PDMODE
 70
     0
  9
$PDSIZE
 40
0.0
  9
$PLINEWID
 40
0.0
  9
$COORDS
 70
     1
  9
$SPLFRAME
 70
     0
  9
$SPLINETYPE
 70
     6
  9
$SPLINESEGS
 70
     8
  9
$ATTDIA
 70
     0
  9
$ATTREQ
 70
     1
  9
$HANDLING
 70
-16383
  9
$HANDSEED
  5
23E
  9
$SURFTAB1
 70
     6
  9
$SURFTAB2
 70
     6
  9
$SURFTYPE
 70
     6
  9
$SURFU
 70
     6
  9
$SURFV
 70
     6
  9
$UCSNAME
  2

  9
$UCSORG
 10
0.0
 20
0.0
 30
0.0
  9
$UCSXDIR
 10
1.0
 20
0.0
 30
0.0
  9
$UCSYDIR
 10
0.0
 20
1.0
 30
0.0
  9
$PUCSNAME
  2

  9
$PUCSORG
 10
0.0
 20
0.0
 30
0.0
  9
$PUCSXDIR
 10
1.0
 20
0.0
 30
0.0
  9
$PUCSYDIR
 10
0.0
 20
1.0
 30
0.0
  9
$USERI1
 70
     0
  9
$USERI2
 70
     0
  9
$USERI3
 70
     0
  9
$USERI4
 70
     0
  9
$USERI5
 70
     0
  9
$USERR1
 40
0.09375
  9
$USERR2
 40
0.0
  9
$USERR3
 40
0.0
  9
$USERR4
 40
0.0
  9
$USERR5
 40
0.0
  9
$WORLDVIEW
 70
     1
  9
$SHADEDGE
 70
     3
  9
$SHADEDIF
 70
    70
  9
$TILEMODE
 70
     1
  9
$MAXACTVP
 70
    64
  9
$PINSBASE
 10
0.0
 20
0.0
 30
0.0
  9
$PLIMCHECK
 70
     0
  9
$PEXTMIN
 10
1.000000000000000E+20
 20
1.000000000000000E+20
 30
1.000000000000000E+20
  9
$PEXTMAX
 10
-1.000000000000000E+20
 20
-1.000000000000000E+20
 30
-1.000000000000000E+20
  9
$PLIMMIN
 10
0.0
 20
0.0
  9
$PLIMMAX
 10
12.0
 20
9.0
  9
$UNITMODE
 70
     0
  9
$VISRETAIN
 70
     1
  9
$PLINEGEN
 70
     0
  9
$PSLTSCALE
 70
     1
  9
$TREEDEPTH
 70
  3020
  9
$PICKSTYLE
 70
     1
  9
$CMLSTYLE
  2
STANDARD
  9
$CMLJUST
 70
     0
  9
$CMLSCALE
 40
1.0
  9
$SAVEIMAGES
 70
     1
  0
ENDSEC
  0
SECTION
  2
CLASSES
  0
CLASS
  1
ACDBDICTIONARYWDFLT
  2
AcDbDictionaryWithDefault
  3
AutoCAD 2000
 90
    32768
280
     0
281
     0
  0
CLASS
  1
ACDBPLACEHOLDER
  2
AcDbPlaceHolder
  3
AutoCAD 2000
 90
    32768
280
     0
281
     0
  0
CLASS
  1
LAYOUT
  2
AcDbLayout
  3
AutoCAD 2000
 90
    32768
280
     0
281
     0
  0
CLASS
  1
LONG_TRANSACTION
  2
AcDbLongTransaction
  3
AutoCAD 2000
 90
    32768
280
     0
281
     0
  0
CLASS
  1
LWPOLYLINE
  2
AcDbPolyline
  3
AutoCAD 2000
 90
    32768
280
     0
281
     1
  0
CLASS
  1
HATCH
  2
AcDbHatch
  3
AutoCAD 2000
 90
    32768
280
     0
281
     1
  0
CLASS
  1
XRECORD
  2
AcDbXrecord
  3
AutoCAD 2000
 90
    32768
280
     0
281
     0
  0
ENDSEC
  0
SECTION
  2
TABLES
  0
TABLE
  2
VPORT
  5
8
330
0
100
AcDbSymbolTable
 70
     3
  0
VPORT
  5
1C5
330
8
100
AcDbSymbolTableRecord
100
AcDbViewportTableRecord
  2
*ACTIVE
 70
     0
 10
0.0
 20
0.0
 11
1.0
 21
1.0
 12
7.113406652612043
 22
4.417133028924294
 13
0.0
 23
0.0
 14
0.5
 24
0.5
 15
0.5
 25
0.5
 16
0.0
 26
0.0
 36
1.0
 17
0.0
 27
0.0
 37
0.0
 40
10.01002976341221
 41
1.513903192584963
 42
50.0
 43
0.0
 44
0.0
 50
0.0
 51
0.0
 71
     0
 72
   100
 73
     1
 74
     3
 75
     0
 76
     0
 77
     0
 78
     0
  0
ENDTAB
  0
TABLE
  2
LTYPE
  5
5
330
0
100
AcDbSymbolTable
 70
     1
  0
LTYPE
  5
14
330
5
100
AcDbSymbolTableRecord
100
AcDbLinetypeTableRecord
  2
BYBLOCK
 70
     0
  3

 72
    65
 73
     0
 40
0.0
  0
LTYPE
  5
15
330
5
100
AcDbSymbolTableRecord
100
AcDbLinetypeTableRecord
  2
BYLAYER
 70
     0
  3

 72
    65
 73
     0
 40
0.0
  0
LTYPE
  5
16
330
5
100
AcDbSymbolTableRecord
100
AcDbLinetypeTableRecord
  2
CONTINUOUS
 70
     0
  3
Solid line
 72
    65
 73
     0
 40
0.0
  0
ENDTAB
  0
TABLE
  2
LAYER
  5
2
330
0
100
AcDbSymbolTable
 70
     6
  0
LAYER
  5
10
330
2
100
AcDbSymbolTableRecord
100
AcDbLayerTableRecord
  2
0
 70
     0
 62
     7
  6
CONTINUOUS
  0
LAYER
  5
34
330
2
100
AcDbSymbolTableRecord
100
AcDbLayerTableRecord
  2
L
 70
     0
 62
     7
  6
CONTINUOUS
  0
LAYER
  5
45
330
2
100
AcDbSymbolTableRecord
100
AcDbLayerTableRecord
  2
DEFPOINTS
 70
     0
 62
     7
  6
CONTINUOUS
  0
LAYER
  5
88
330
2
100
AcDbSymbolTableRecord
100
AcDbLayerTableRecord
  2
TX
 70
     0
 62
   150
  6
CONTINUOUS
  0
LAYER
  5
B5
330
2
100
AcDbSymbolTableRecord
100
AcDbLayerTableRecord
  2
MAIN
 70
     0
 62
     7
  6
CONTINUOUS
  0
LAYER
  5
B6
330
2
100
AcDbSymbolTableRecord
100
AcDbLayerTableRecord
  2
DM
 70
     0
 62
   133
  6
CONTINUOUS
  0
ENDTAB
  0
TABLE
  2
STYLE
  5
3
330
0
100
AcDbSymbolTable
 70
     3
  0
STYLE
  5
11
330
3
100
AcDbSymbolTableRecord
100
AcDbTextStyleTableRecord
  2
STANDARD
 70
     0
 40
0.0
 41
1.0
 50
0.0
 71
     0
 42
0.09375
  3
txt
  4

  0
STYLE
  5
35
330
3
100
AcDbSymbolTableRecord
100
AcDbTextStyleTableRecord
  2
REG
 70
     0
 40
0.0
 41
1.0
 50
0.0
 71
     0
 42
0.09375
  3
E:\R13\com\fonts\ARCHITXT.SHX
  4

  0
STYLE
  5
36
330
3
100
AcDbSymbolTableRecord
100
AcDbTextStyleTableRecord
  2
DIMTXT
 70
     0
 40
0.0
 41
1.0
 50
0.0
 71
     0
 42
1.125
  3
archt.shx
  4

  0
ENDTAB
  0
TABLE
  2
VIEW
  5
6
330
0
100
AcDbSymbolTable
 70
     0
  0
ENDTAB
  0
TABLE
  2
UCS
  5
7
330
0
100
AcDbSymbolTable
 70
     0
  0
ENDTAB
  0
TABLE
  2
APPID
  5
9
330
0
100
AcDbSymbolTable
 70
     1
  0
APPID
  5
12
330
9
100
AcDbSymbolTableRecord
100
AcDbRegAppTableRecord
  2
ACAD
 70
     0
  0
ENDTAB
  0
TABLE
  2
DIMSTYLE
  5
A
330
0
100
AcDbSymbolTable
 70
    10
  0
DIMSTYLE
105
27
102
{ACAD_REACTORS
330
C1
330
CF
102
}
330
A
100
AcDbSymbolTableRecord
100
AcDbDimStyleTableRecord
  2
STANDARD
 70
     0
  3

  4

  5

  6

  7

 40
1.0
 41
0.18
 42
0.0625
 43
0.38
 44
0.18
 45
0.0
 46
0.0
 47
0.0
 48
0.0
140
0.18
141
0.09
142
0.0
143
25.4
144
1.0
145
0.0
146
1.0
147
0.09
 71
     0
 72
     0
 73
     1
 74
     1
 75
     0
 76
     0
 77
     0
 78
     0
170
     0
171
     2
172
     0
173
     0
174
     0
175
     0
176
     0
177
     0
178
     0
270
     2
271
     2
272
     2
273
     2
274
     2
340
11
275
     0
280
     0
281
     0
282
     0
283
     1
284
     0
285
     0
286
     0
287
     3
288
     0
  0
DIMSTYLE
105
37
330
A
100
AcDbSymbolTableRecord
100
AcDbDimStyleTableRecord
  2
1
 70
     0
  3

  4

  5

  6

  7

 40
1.0
 41
1.125
 42
0.5
 43
0.375
 44
1.19921875
 45
0.0
 46
0.5
 47
0.0
 48
0.0
140
1.125
141
0.125
142
0.0
143
25.4
144
1.0
145
0.0
146
0.8
147
0.5625
 71
     0
 72
     0
 73
     0
 74
     0
 75
     0
 76
     0
 77
     1
 78
     3
170
     0
171
     2
172
     1
173
     0
174
     1
175
     0
176
   133
177
   133
178
   150
270
     2
271
     3
272
     3
273
     2
274
     2
340
36
275
     0
280
     0
281
     0
282
     0
283
     1
284
     0
285
     0
286
     0
287
     4
288
     0
  0
DIMSTYLE
105
38
330
A
100
AcDbSymbolTableRecord
100
AcDbDimStyleTableRecord
  2
1$2
 70
     0
  3

  4

  5
DOTSMALL
  6

  7

 40
1.0
 41
1.5
 42
0.5
 43
0.375
 44
1.19921875
 45
0.0
 46
0.5
 47
0.0
 48
0.0
140
0.75
141
0.125
142
0.0
143
25.4
144
1.0
145
0.0
146
0.8
147
0.5625
 71
     0
 72
     0
 73
     0
 74
     0
 75
     0
 76
     0
 77
     1
 78
     3
170
     0
171
     2
172
     1
173
     0
174
     1
175
     0
176
   133
177
   133
178
   150
270
     2
271
     3
272
     3
273
     2
274
     2
340
36
275
     0
280
     0
281
     0
282
     0
283
     1
284
     0
285
     0
286
     0
287
     4
288
     0
  0
DIMSTYLE
105
39
330
A
100
AcDbSymbolTableRecord
100
AcDbDimStyleTableRecord
  2
1$4
 70
     0
  3

  4

  5

  6

  7
DOTSMALL
 40
1.0
 41
1.5
 42
0.5
 43
0.375
 44
1.19921875
 45
0.0
 46
0.5
 47
0.0
 48
0.0
140
0.75
141
0.125
142
0.0
143
25.4
144
1.0
145
0.0
146
0.8
147
0.5625
 71
     0
 72
     0
 73
     0
 74
     0
 75
     0
 76
     0
 77
     1
 78
     3
170
     0
171
     2
172
     1
173
     1
174
     1
175
     0
176
   133
177
   133
178
   150
270
     2
271
     3
272
     3
273
     2
274
     2
340
36
275
     0
280
     0
281
     0
282
     0
283
     1
284
     0
285
     0
286
     0
287
     4
288
     0
  0
DIMSTYLE
105
3A
330
A
100
AcDbSymbolTableRecord
100
AcDbDimStyleTableRecord
  2
1$3
 70
     0
  3

  4

  5
DOTSMALL
  6

  7

 40
1.0
 41
1.5
 42
0.5
 43
0.375
 44
1.19921875
 45
0.0
 46
0.5
 47
0.0
 48
0.0
140
0.75
141
0.125
142
0.0
143
25.4
144
1.0
145
0.0
146
0.8
147
0.5625
 71
     0
 72
     0
 73
     0
 74
     0
 75
     0
 76
     0
 77
     1
 78
     3
170
     0
171
     2
172
     1
173
     0
174
     1
175
     0
176
   133
177
   133
178
   150
270
     2
271
     3
272
     3
273
     2
274
     2
340
36
275
     0
280
     0
281
     0
282
     0
283
     1
284
     0
285
     0
286
     0
287
     4
288
     0
  0
DIMSTYLE
105
3B
330
A
100
AcDbSymbolTableRecord
100
AcDbDimStyleTableRecord
  2
1$7
 70
     0
  3

  4

  5

  6

  7

 40
1.0
 41
1.0
 42
0.5
 43
0.375
 44
1.19921875
 45
0.0
 46
0.5
 47
0.0
 48
0.0
140
0.75
141
0.125
142
0.0
143
25.4
144
1.0
145
0.0
146
0.8
147
0.5625
 71
     0
 72
     0
 73
     0
 74
     0
 75
     0
 76
     0
 77
     1
 78
     3
170
     0
171
     2
172
     1
173
     0
174
     1
175
     0
176
   133
177
   133
178
   150
270
     2
271
     3
272
     3
273
     2
274
     2
340
36
275
     0
280
     0
281
     0
282
     0
283
     1
284
     0
285
     0
286
     0
287
     4
288
     0
  0
DIMSTYLE
105
B7
330
A
100
AcDbSymbolTableRecord
100
AcDbDimStyleTableRecord
  2
STANDARD$2
 70
     0
  3

  4

  5
DOTSMALL
  6

  7

 40
1.0
 41
1.5
 42
0.5
 43
0.375
 44
0.5
 45
0.0
 46
0.5
 47
0.0
 48
0.0
140
0.75
141
0.125
142
0.0
143
25.4
144
1.0
145
0.0
146
0.8
147
0.25
 71
     0
 72
     0
 73
     0
 74
     0
 75
     0
 76
     0
 77
     1
 78
     4
170
     0
171
     2
172
     1
173
     0
174
     1
175
     0
176
   133
177
   133
178
   150
270
     2
271
     3
272
     3
273
     2
274
     2
340
36
275
     0
280
     0
281
     0
282
     0
283
     1
284
     0
285
     0
286
     0
287
     3
288
     0
  0
DIMSTYLE
105
B8
330
A
100
AcDbSymbolTableRecord
100
AcDbDimStyleTableRecord
  2
STANDARD$4
 70
     0
  3

  4

  5

  6
DOTSMALL
  7
DOTSMALL
 40
1.0
 41
1.5
 42
0.5
 43
0.375
 44
0.5
 45
0.0
 46
0.5
 47
0.0
 48
0.0
140
0.75
141
0.125
142
0.0
143
25.4
144
1.0
145
0.0
146
0.8
147
0.25
 71
     0
 72
     0
 73
     1
 74
     1
 75
     0
 76
     0
 77
     0
 78
     4
170
     0
171
     2
172
     1
173
     1
174
     1
175
     0
176
   133
177
   133
178
   150
270
     2
271
     3
272
     3
273
     2
274
     2
340
36
275
     0
280
     0
281
     0
282
     0
283
     1
284
     0
285
     0
286
     0
287
     3
288
     1
  0
DIMSTYLE
105
B9
330
A
100
AcDbSymbolTableRecord
100
AcDbDimStyleTableRecord
  2
STANDARD$3
 70
     0
  3

  4

  5
DOTSMALL
  6

  7

 40
1.0
 41
1.5
 42
0.5
 43
0.375
 44
0.5
 45
0.0
 46
0.5
 47
0.0
 48
0.0
140
0.75
141
0.125
142
0.0
143
25.4
144
1.0
145
0.0
146
0.8
147
0.25
 71
     0
 72
     0
 73
     1
 74
     1
 75
     0
 76
     0
 77
     0
 78
     4
170
     0
171
     2
172
     1
173
     0
174
     1
175
     0
176
   133
177
   133
178
   150
270
     2
271
     3
272
     3
273
     2
274
     2
340
36
275
     0
280
     0
281
     0
282
     0
283
     1
284
     0
285
     0
286
     0
287
     3
288
     1
  0
DIMSTYLE
105
BA
330
A
100
AcDbSymbolTableRecord
100
AcDbDimStyleTableRecord
  2
STANDARD$7
 70
     0
  3

  4

  5
DOTSMALL
  6

  7

 40
1.0
 41
1.5
 42
0.5
 43
0.375
 44
0.5
 45
0.0
 46
0.5
 47
0.0
 48
0.0
140
0.75
141
0.125
142
0.0
143
25.4
144
1.0
145
0.0
146
0.8
147
0.25
 71
     0
 72
     0
 73
     0
 74
     0
 75
     0
 76
     0
 77
     1
 78
     4
170
     0
171
     2
172
     1
173
     0
174
     1
175
     0
176
   133
177
   133
178
   150
270
     2
271
     3
272
     3
273
     2
274
     2
340
36
275
     0
280
     0
281
     0
282
     0
283
     1
284
     0
285
     0
286
     0
287
     3
288
     0
  0
ENDTAB
  0
TABLE
  2
BLOCK_RECORD
  5
1
330
0
100
AcDbSymbolTable
 70
     7
  0
BLOCK_RECORD
  5
1F
102
{ACAD_XDICTIONARY
360
1C8
102
}
330
1
100
AcDbSymbolTableRecord
100
AcDbBlockTableRecord
  2
*MODEL_SPACE
  0
BLOCK_RECORD
  5
1B
102
{ACAD_XDICTIONARY
360
1C6
102
}
330
1
100
AcDbSymbolTableRecord
100
AcDbBlockTableRecord
  2
*PAPER_SPACE
  0
BLOCK_RECORD
  5
2B
330
1
100
AcDbSymbolTableRecord
100
AcDbBlockTableRecord
  2
_DOT
  0
BLOCK_RECORD
  5
30
330
1
100
AcDbSymbolTableRecord
100
AcDbBlockTableRecord
  2
_DOTSMALL
  0
BLOCK_RECORD
  5
C2
330
1
100
AcDbSymbolTableRecord
100
AcDbBlockTableRecord
  2
*D5
  0
BLOCK_RECORD
  5
D0
330
1
100
AcDbSymbolTableRecord
100
AcDbBlockTableRecord
  2
*D6
  0
ENDTAB
  0
ENDSEC
  0
SECTION
  2
BLOCKS
  0
BLOCK
  5
20
330
1F
100
AcDbEntity
  8
0
100
AcDbBlockBegin
  2
*MODEL_SPACE
 70
     0
 10
0.0
 20
0.0
 30
0.0
  3
*MODEL_SPACE
  1

  0
ENDBLK
  5
21
330
1F
100
AcDbEntity
  8
0
100
AcDbBlockEnd
  0
BLOCK
  5
1C
330
1B
100
AcDbEntity
 67
     1
  8
0
100
AcDbBlockBegin
  2
*PAPER_SPACE
 70
     0
 10
0.0
 20
0.0
 30
0.0
  3
*PAPER_SPACE
  1

  0
ENDBLK
  5
1D
330
1B
100
AcDbEntity
 67
     1
  8
0
100
AcDbBlockEnd
  0
BLOCK
  5
2E
330
2B
100
AcDbEntity
  8
0
100
AcDbBlockBegin
  2
_DOT
 70
     0
 10
0.0
 20
0.0
 30
0.0
  3
_DOT
  1

  0
POLYLINE
  5
2C
330
2B
100
AcDbEntity
  8
L
 62
     0
100
AcDb2dPolyline
 66
     1
 10
0.0
 20
0.0
 30
0.0
 70
     1
 40
0.5
 41
0.5
  0
VERTEX
  5
1CC
330
2C
100
AcDbEntity
  8
L
 62
     0
100
AcDbVertex
100
AcDb2dVertex
 10
-0.25
 20
0.0
 30
0.0
 42
1.0
  0
VERTEX
  5
1CD
330
2C
100
AcDbEntity
  8
L
 62
     0
100
AcDbVertex
100
AcDb2dVertex
 10
0.25
 20
0.0
 30
0.0
 42
1.0
  0
SEQEND
  5
1CE
330
2C
100
AcDbEntity
  8
L
 62
     0
  0
LINE
  5
2D
330
2B
100
AcDbEntity
  8
L
 62
     0
100
AcDbLine
 10
-0.5
 20
0.0
 30
0.0
 11
-1.0
 21
0.0
 31
0.0
  0
ENDBLK
  5
2F
330
2B
100
AcDbEntity
  8
0
100
AcDbBlockEnd
  0
BLOCK
  5
32
330
30
100
AcDbEntity
  8
0
 48
0.116666
100
AcDbBlockBegin
  2
_DOTSMALL
 70
     0
 10
0.0
 20
0.0
 30
0.0
  3
_DOTSMALL
  1

  0
POLYLINE
  5
31
330
30
100
AcDbEntity
  8
0
  6
BYBLOCK
 62
     0
100
AcDb2dPolyline
 66
     1
 10
0.0
 20
0.0
 30
0.0
 70
     1
 40
0.5
 41
0.5
  0
VERTEX
  5
1CF
330
31
100
AcDbEntity
  8
0
  6
BYBLOCK
 62
     0
100
AcDbVertex
100
AcDb2dVertex
 10
-0.0625
 20
0.0
 30
0.0
 42
1.0
  0
VERTEX
  5
1D0
330
31
100
AcDbEntity
  8
0
  6
BYBLOCK
 62
     0
100
AcDbVertex
100
AcDb2dVertex
 10
0.0625
 20
0.0
 30
0.0
 42
1.0
  0
SEQEND
  5
1D1
330
31
100
AcDbEntity
  8
0
  6
BYBLOCK
 62
     0
  0
ENDBLK
  5
33
330
30
100
AcDbEntity
  8
0
 48
0.116666
100
AcDbBlockEnd
  0
BLOCK
  5
CD
330
C2
100
AcDbEntity
  8
0
100
AcDbBlockBegin
  2
*D5
 70
     1
 10
0.0
 20
0.0
 30
0.0
  3
*D5
  1

  0
LINE
  5
E7
330
C2
100
AcDbEntity
  8
0
 62
     0
100
AcDbLine
 10
5.681543327310809
 20
6.55768546544952
 30
0.0
 11
5.681543327310809
 21
7.02883805787107
 31
0.0
  0
LINE
  5
E8
330
C2
100
AcDbEntity
  8
0
 62
     0
100
AcDbLine
 10
7.645543327310296
 20
6.55768546544952
 30
0.0
 11
7.645543327310296
 21
7.02883805787107
 31
0.0
  0
LINE
  5
E9
330
C2
100
AcDbEntity
  8
0
 62
     0
100
AcDbLine
 10
5.775293327310809
 20
6.93508805787107
 30
0.0
 11
6.491668327310552
 21
6.93508805787107
 31
0.0
  0
LINE
  5
EA
330
C2
100
AcDbEntity
  8
0
 62
     0
100
AcDbLine
 10
7.551793327310296
 20
6.93508805787107
 30
0.0
 11
6.835418327310552
 21
6.93508805787107
 31
0.0
  0
SOLID
  5
EB
330
C2
100
AcDbEntity
  8
0
 62
     0
100
AcDbTrace
 10
5.775293327310809
 20
6.95071305787107
 30
0.0
 11
5.775293327310809
 21
6.91946305787107
 31
0.0
 12
5.681543327310809
 22
6.93508805787107
 32
0.0
 13
5.681543327310809
 23
6.93508805787107
 33
0.0
  0
SOLID
  5
EC
330
C2
100
AcDbEntity
  8
0
 62
     0
100
AcDbTrace
 10
7.551793327310296
 20
6.95071305787107
 30
0.0
 11
7.551793327310296
 21
6.91946305787107
 31
0.0
 12
7.645543327310296
 22
6.93508805787107
 32
0.0
 13
7.645543327310296
 23
6.93508805787107
 33
0.0
  0
MTEXT
  5
ED
330
C2
100
AcDbEntity
  8
0
 62
     0
100
AcDbMText
 10
6.663543327310552
 20
6.93508805787107
 30
0.0
 40
0.09375
 41
0.0
 71
     5
 72
     1
  1
\A1;1.96
1001
ACAD
1000
MTEXTBEGIN
1070
    73
1070
     1
1070
    44
1040
1.0
1070
    74
1070
     0
1000
MTEXTEND
  0
POINT
  5
EE
330
C2
100
AcDbEntity
  8
DEFPOINTS
 62
     0
100
AcDbPoint
 10
5.681543327310809
 20
6.525133382116187
 30
0.0
  0
POINT
  5
EF
330
C2
100
AcDbEntity
  8
DEFPOINTS
 62
     0
100
AcDbPoint
 10
7.645543327310296
 20
6.525133382116187
 30
0.0
  0
POINT
  5
F0
330
C2
100
AcDbEntity
  8
DEFPOINTS
 62
     0
100
AcDbPoint
 10
7.645543327310296
 20
6.93508805787107
 30
0.0
  0
ENDBLK
  5
CE
330
C2
100
AcDbEntity
  8
0
100
AcDbBlockEnd
  0
BLOCK
  5
DB
330
D0
100
AcDbEntity
  8
0
100
AcDbBlockBegin
  2
*D6
 70
     1
 10
0.0
 20
0.0
 30
0.0
  3
*D6
  1

  0
LINE
  5
D1
330
D0
100
AcDbEntity
  8
0
 62
     0
100
AcDbLine
 10
5.688991243977439
 20
6.565133382116151
 30
0.0
 11
5.185903794342562
 21
6.565133382116151
 31
0.0
  0
LINE
  5
D2
330
D0
100
AcDbEntity
  8
0
 62
     0
100
AcDbLine
 10
5.688991243977212
 20
5.319133382116511
 30
0.0
 11
5.185903794342561
 21
5.319133382116511
 31
0.0
  0
LINE
  5
D3
330
D0
100
AcDbEntity
  8
0
 62
     0
100
AcDbLine
 10
5.279653794342562
 20
6.471383382116151
 30
0.0
 11
5.279653794342562
 21
6.035883382116331
 31
0.0
  0
LINE
  5
D4
330
D0
100
AcDbEntity
  8
0
 62
     0
100
AcDbLine
 10
5.279653794342561
 20
5.412883382116511
 30
0.0
 11
5.279653794342561
 21
5.848383382116331
 31
0.0
  0
SOLID
  5
D5
330
D0
100
AcDbEntity
  8
0
 62
     0
100
AcDbTrace
 10
5.264028794342562
 20
6.471383382116151
 30
0.0
 11
5.295278794342562
 21
6.471383382116151
 31
0.0
 12
5.279653794342562
 22
6.565133382116151
 32
0.0
 13
5.279653794342562
 23
6.565133382116151
 33
0.0
  0
SOLID
  5
D6
330
D0
100
AcDbEntity
  8
0
 62
     0
100
AcDbTrace
 10
5.264028794342561
 20
5.412883382116511
 30
0.0
 11
5.295278794342561
 21
5.412883382116511
 31
0.0
 12
5.279653794342561
 22
5.319133382116511
 32
0.0
 13
5.279653794342561
 23
5.319133382116511
 33
0.0
  0
MTEXT
  5
D7
330
D0
100
AcDbEntity
  8
0
 62
     0
100
AcDbMText
 10
5.27965379434256
 20
5.942133382116332
 30
0.0
 40
0.09375
 41
0.0
 71
     5
 72
     1
  1
\A1;1.25
1001
ACAD
1000
MTEXTBEGIN
1070
    73
1070
     1
1070
    44
1040
1.0
1070
    74
1070
     0
1000
MTEXTEND
  0
POINT
  5
D8
330
D0
100
AcDbEntity
  8
DEFPOINTS
 62
     0
100
AcDbPoint
 10
5.721543327310772
 20
6.565133382116151
 30
0.0
  0
POINT
  5
D9
330
D0
100
AcDbEntity
  8
DEFPOINTS
 62
     0
100
AcDbPoint
 10
5.721543327310545
 20
5.319133382116511
 30
0.0
  0
POINT
  5
DA
330
D0
100
AcDbEntity
  8
DEFPOINTS
 62
     0
100
AcDbPoint
 10
5.279653794342561
 20
5.319133382116511
 30
0.0
  0
ENDBLK
  5
DC
330
D0
100
AcDbEntity
  8
0
100
AcDbBlockEnd
  0
ENDSEC
  0
SECTION
  2
ENTITIES
  0
DIMENSION
  5
C1
330
1F
100
AcDbEntity
  8
0
100
AcDbDimension
  2
*D5
 10
7.645543327310296
 20
6.93508805787107
 30
0.0
 11
6.663543327310552
 21
6.93508805787107
 31
0.0
 70
    32
  3
STANDARD
100
AcDbAlignedDimension
 13
5.681543327310809
 23
6.525133382116187
 33
0.0
 14
7.645543327310296
 24
6.525133382116187
 34
0.0
100
AcDbRotatedDimension
1001
ACAD
1000
DSTYLE
1002
{
1070
    40
1040
0.5208333333333334
1002
}
  0
DIMENSION
  5
CF
330
1F
100
AcDbEntity
  8
0
100
AcDbDimension
  2
*D6
 10
5.279653794342561
 20
5.319133382116511
 30
0.0
 11
5.27965379434256
 21
5.942133382116332
 31
0.0
 70
    32
  3
STANDARD
100
AcDbAlignedDimension
 13
5.721543327310772
 23
6.565133382116151
 33
0.0
 14
5.721543327310545
 24
5.319133382116511
 34
0.0
 50
90.0
100
AcDbRotatedDimension
1001
ACAD
1000
DSTYLE
1002
{
1070
    40
1040
0.5208333333333334
1002
}
  0
POLYLINE
  5
159
330
1F
100
AcDbEntity
  8
DM
 62
     5
100
AcDb2dPolyline
 66
     1
 10
0.0
 20
0.0
 30
0.0
 70
     1
  0
VERTEX
  5
1D2
330
159
100
AcDbEntity
  8
DM
 62
     5
100
AcDbVertex
100
AcDb2dVertex
 10
7.605543327310559
 20
5.31913338211617
 30
0.0
 42
0.4142135623730951
  0
VERTEX
  5
1D3
330
159
100
AcDbEntity
  8
DM
 62
     5
100
AcDbVertex
100
AcDb2dVertex
 10
7.645543327310523
 20
5.359133382116134
 30
0.0
  0
VERTEX
  5
1D4
330
159
100
AcDbEntity
  8
DM
 62
     5
100
AcDbVertex
100
AcDb2dVertex
 10
7.645543327310296
 20
6.525133382116187
 30
0.0
 42
0.4142135623730951
  0
VERTEX
  5
1D5
330
159
100
AcDbEntity
  8
DM
 62
     5
100
AcDbVertex
100
AcDb2dVertex
 10
7.605543327310332
 20
6.565133382116151
 30
0.0
  0
VERTEX
  5
1D6
330
159
100
AcDbEntity
  8
DM
 62
     5
100
AcDbVertex
100
AcDb2dVertex
 10
7.379293327309941
 20
6.565133382116151
 30
0.0
 42
0.4142135623753151
  0
VERTEX
  5
1D7
330
159
100
AcDbEntity
  8
DM
 62
     5
100
AcDbVertex
100
AcDb2dVertex
 10
7.349293327309968
 20
6.535133382116292
 30
0.0
  0
VERTEX
  5
1D8
330
159
100
AcDbEntity
  8
DM
 62
     5
100
AcDbVertex
100
AcDb2dVertex
 10
7.349293327310025
 20
6.522133382116145
 30
0.0
 42
-0.41421356237587
  0
VERTEX
  5
1D9
330
159
100
AcDbEntity
  8
DM
 62
     5
100
AcDbVertex
100
AcDb2dVertex
 10
7.319293327309996
 20
6.492133382116286
 30
0.0
  0
VERTEX
  5
1DA
330
159
100
AcDbEntity
  8
DM
 62
     5
100
AcDbVertex
100
AcDb2dVertex
 10
7.116255026681873
 20
6.492133382116264
 30
0.0
 42
0.7812856265061825
  0
VERTEX
  5
1DB
330
159
100
AcDbEntity
  8
DM
 62
     5
100
AcDbVertex
100
AcDb2dVertex
 10
7.108878830623897
 20
6.462549075604975
 30
0.0
  0
VERTEX
  5
1DC
330
159
100
AcDbEntity
  8
DM
 62
     5
100
AcDbVertex
100
AcDb2dVertex
 10
7.192091891711585
 20
6.418303906187776
 30
0.0
 42
0.1227845609018643
  0
VERTEX
  5
1DD
330
159
100
AcDbEntity
  8
DM
 62
     5
100
AcDbVertex
100
AcDb2dVertex
 10
7.196786607339507
 20
6.417133382116354
 30
0.0
  0
VERTEX
  5
1DE
330
159
100
AcDbEntity
  8
DM
 62
     5
100
AcDbVertex
100
AcDb2dVertex
 10
7.479293327310532
 20
6.41713338211624
 30
0.0
 42
-0.4142135623730951
  0
VERTEX
  5
1DF
330
159
100
AcDbEntity
  8
DM
 62
     5
100
AcDbVertex
100
AcDb2dVertex
 10
7.489293327310523
 20
6.407133382116249
 30
0.0
  0
VERTEX
  5
1E0
330
159
100
AcDbEntity
  8
DM
 62
     5
100
AcDbVertex
100
AcDb2dVertex
 10
7.489293327310721
 20
6.358275517740104
 30
0.0
 42
-0.1989123673759119
  0
VERTEX
  5
1E1
330
159
100
AcDbEntity
  8
DM
 62
     5
100
AcDbVertex
100
AcDb2dVertex
 10
7.486364395122681
 20
6.351204449928182
 30
0.0
  0
VERTEX
  5
1E2
330
159
100
AcDbEntity
  8
DM
 62
     5
100
AcDbVertex
100
AcDb2dVertex
 10
7.442722259498493
 20
6.307562314304261
 30
0.0
 42
-0.1989123673775688
  0
VERTEX
  5
1E3
330
159
100
AcDbEntity
  8
DM
 62
     5
100
AcDbVertex
100
AcDb2dVertex
 10
7.435651191686591
 20
6.304633382116172
 30
0.0
  0
VERTEX
  5
1E4
330
159
100
AcDbEntity
  8
DM
 62
     5
100
AcDbVertex
100
AcDb2dVertex
 10
7.260639280505873
 20
6.304633382116167
 30
0.0
 42
0.1628603417866102
  0
VERTEX
  5
1E5
330
159
100
AcDbEntity
  8
DM
 62
     5
100
AcDbVertex
100
AcDb2dVertex
 10
7.254621130274362
 20
6.302619737216637
 30
0.0
  0
VERTEX
  5
1E6
330
159
100
AcDbEntity
  8
DM
 62
     5
100
AcDbVertex
100
AcDb2dVertex
 10
7.206238876616115
 20
6.266161094019899
 30
0.0
 42
1.000000000000003
  0
VERTEX
  5
1E7
330
159
100
AcDbEntity
  8
DM
 62
     5
100
AcDbVertex
100
AcDb2dVertex
 10
7.242347778005186
 20
6.218242963416933
 30
0.0
  0
VERTEX
  5
1E8
330
159
100
AcDbEntity
  8
DM
 62
     5
100
AcDbVertex
100
AcDb2dVertex
 10
7.27469684944424
 20
6.242619737216809
 30
0.0
 42
-0.1628603417904191
  0
VERTEX
  5
1E9
330
159
100
AcDbEntity
  8
DM
 62
     5
100
AcDbVertex
100
AcDb2dVertex
 10
7.280714999675755
 20
6.24463338211634
 30
0.0
  0
VERTEX
  5
1EA
330
159
100
AcDbEntity
  8
DM
 62
     5
100
AcDbVertex
100
AcDb2dVertex
 10
7.460504005429019
 20
6.244633382116239
 30
0.0
 42
0.198912367379658
  0
VERTEX
  5
1EB
330
159
100
AcDbEntity
  8
DM
 62
     5
100
AcDbVertex
100
AcDb2dVertex
 10
7.46757507324094
 20
6.24756231430441
 30
0.0
  0
VERTEX
  5
1EC
330
159
100
AcDbEntity
  8
DM
 62
     5
100
AcDbVertex
100
AcDb2dVertex
 10
7.518788276676005
 20
6.298775517740022
 30
0.0
 42
-0.1989123673786134
  0
VERTEX
  5
1ED
330
159
100
AcDbEntity
  8
DM
 62
     5
100
AcDbVertex
100
AcDb2dVertex
 10
7.532930412299837
 20
6.304633382116286
 30
0.0
  0
VERTEX
  5
1EE
330
159
100
AcDbEntity
  8
DM
 62
     5
100
AcDbVertex
100
AcDb2dVertex
 10
7.550543327310496
 20
6.304633382116513
 30
0.0
 42
-0.4142135623747599
  0
VERTEX
  5
1EF
330
159
100
AcDbEntity
  8
DM
 62
     5
100
AcDbVertex
100
AcDb2dVertex
 10
7.570543327310478
 20
6.284633382116417
 30
0.0
  0
VERTEX
  5
1F0
330
159
100
AcDbEntity
  8
DM
 62
     5
100
AcDbVertex
100
AcDb2dVertex
 10
7.570543327310648
 20
6.164133382116425
 30
0.0
 42
-0.4142135623736504
  0
VERTEX
  5
1F1
330
159
100
AcDbEntity
  8
DM
 62
     5
100
AcDbVertex
100
AcDb2dVertex
 10
7.540543327310732
 20
6.134133382116452
 30
0.0
  0
VERTEX
  5
1F2
330
159
100
AcDbEntity
  8
DM
 62
     5
100
AcDbVertex
100
AcDb2dVertex
 10
7.415543327310505
 20
6.134133382116566
 30
0.0
 42
0.4142135623764249
  0
VERTEX
  5
1F3
330
159
100
AcDbEntity
  8
DM
 62
     5
100
AcDbVertex
100
AcDb2dVertex
 10
7.385543327310532
 20
6.104133382116593
 30
0.0
  0
VERTEX
  5
1F4
330
159
100
AcDbEntity
  8
DM
 62
     5
100
AcDbVertex
100
AcDb2dVertex
 10
7.385543327310568
 20
6.054133382116638
 30
0.0
 42
0.3500011112482031
  0
VERTEX
  5
1F5
330
159
100
AcDbEntity
  8
DM
 62
     5
100
AcDbVertex
100
AcDb2dVertex
 10
7.428321105117111
 20
6.000508599144126
 30
0.0
 42
0.4814802620080908
  0
VERTEX
  5
1F6
330
159
100
AcDbEntity
  8
DM
 62
     5
100
AcDbVertex
100
AcDb2dVertex
 10
7.440543327310141
 20
6.010258559581153
 30
0.0
  0
VERTEX
  5
1F7
330
159
100
AcDbEntity
  8
DM
 62
     5
100
AcDbVertex
100
AcDb2dVertex
 10
7.440543327310027
 20
6.069133382116625
 30
0.0
 42
-0.4142135623631056
  0
VERTEX
  5
1F8
330
159
100
AcDbEntity
  8
DM
 62
     5
100
AcDbVertex
100
AcDb2dVertex
 10
7.450543327309905
 20
6.079133382116616
 30
0.0
  0
VERTEX
  5
1F9
330
159
100
AcDbEntity
  8
DM
 62
     5
100
AcDbVertex
100
AcDb2dVertex
 10
7.560543327310487
 20
6.079133382116616
 30
0.0
 42
-0.4142135623631056
  0
VERTEX
  5
1FA
330
159
100
AcDbEntity
  8
DM
 62
     5
100
AcDbVertex
100
AcDb2dVertex
 10
7.570543327310478
 20
6.069133382116625
 30
0.0
  0
VERTEX
  5
1FB
330
159
100
AcDbEntity
  8
DM
 62
     5
100
AcDbVertex
100
AcDb2dVertex
 10
7.570543327310705
 20
5.48913338211647
 30
0.0
 42
-0.4142135623730951
  0
VERTEX
  5
1FC
330
159
100
AcDbEntity
  8
DM
 62
     5
100
AcDbVertex
100
AcDb2dVertex
 10
7.560543327310714
 20
5.479133382116479
 30
0.0
  0
VERTEX
  5
1FD
330
159
100
AcDbEntity
  8
DM
 62
     5
100
AcDbVertex
100
AcDb2dVertex
 10
7.530543327310287
 20
5.479133382116479
 30
0.0
 42
0.4142135623747599
  0
VERTEX
  5
1FE
330
159
100
AcDbEntity
  8
DM
 62
     5
100
AcDbVertex
100
AcDb2dVertex
 10
7.510543327310305
 20
5.459133382116384
 30
0.0
  0
VERTEX
  5
1FF
330
159
100
AcDbEntity
  8
DM
 62
     5
100
AcDbVertex
100
AcDb2dVertex
 10
7.510543327310418
 20
5.429133382116638
 30
0.0
 42
-1.000000000000003
  0
VERTEX
  5
200
330
159
100
AcDbEntity
  8
DM
 62
     5
100
AcDbVertex
100
AcDb2dVertex
 10
7.440543327310141
 20
5.429133382116638
 30
0.0
  0
VERTEX
  5
201
330
159
100
AcDbEntity
  8
DM
 62
     5
100
AcDbVertex
100
AcDb2dVertex
 10
7.440543327310081
 20
5.548008204652056
 30
0.0
 42
0.481480262007371
  0
VERTEX
  5
202
330
159
100
AcDbEntity
  8
DM
 62
     5
100
AcDbVertex
100
AcDb2dVertex
 10
7.428321105246253
 20
5.557758164519994
 30
0.0
 42
0.3500011112447819
  0
VERTEX
  5
203
330
159
100
AcDbEntity
  8
DM
 62
     5
100
AcDbVertex
100
AcDb2dVertex
 10
7.385543327310532
 20
5.50413338211657
 30
0.0
  0
VERTEX
  5
204
330
159
100
AcDbEntity
  8
DM
 62
     5
100
AcDbVertex
100
AcDb2dVertex
 10
7.385543327310646
 20
5.424133382116302
 30
0.0
 42
-0.4142135623764247
  0
VERTEX
  5
205
330
159
100
AcDbEntity
  8
DM
 62
     5
100
AcDbVertex
100
AcDb2dVertex
 10
7.355543327310559
 20
5.394133382116329
 30
0.0
  0
VERTEX
  5
206
330
159
100
AcDbEntity
  8
DM
 62
     5
100
AcDbVertex
100
AcDb2dVertex
 10
5.971543327310545
 20
5.394133382116329
 30
0.0
 42
-0.4142135623764248
  0
VERTEX
  5
207
330
159
100
AcDbEntity
  8
DM
 62
     5
100
AcDbVertex
100
AcDb2dVertex
 10
5.941543327310572
 20
5.424133382116302
 30
0.0
  0
VERTEX
  5
208
330
159
100
AcDbEntity
  8
DM
 62
     5
100
AcDbVertex
100
AcDb2dVertex
 10
5.941543327310671
 20
5.50413338211657
 30
0.0
 42
0.3500011112453608
  0
VERTEX
  5
209
330
159
100
AcDbEntity
  8
DM
 62
     5
100
AcDbVertex
100
AcDb2dVertex
 10
5.898765549504454
 20
5.557758165088994
 30
0.0
 42
0.4814802620045899
  0
VERTEX
  5
20A
330
159
100
AcDbEntity
  8
DM
 62
     5
100
AcDbVertex
100
AcDb2dVertex
 10
5.886543327311191
 20
5.548008204652056
 30
0.0
  0
VERTEX
  5
20B
330
159
100
AcDbEntity
  8
DM
 62
     5
100
AcDbVertex
100
AcDb2dVertex
 10
5.886543327311191
 20
5.429133382116638
 30
0.0
 42
-1.000000000000003
  0
VERTEX
  5
20C
330
159
100
AcDbEntity
  8
DM
 62
     5
100
AcDbVertex
100
AcDb2dVertex
 10
5.816543327310572
 20
5.429133382116638
 30
0.0
  0
VERTEX
  5
20D
330
159
100
AcDbEntity
  8
DM
 62
     5
100
AcDbVertex
100
AcDb2dVertex
 10
5.8165433273108
 20
5.459133382116384
 30
0.0
 42
0.4142135623747599
  0
VERTEX
  5
20E
330
159
100
AcDbEntity
  8
DM
 62
     5
100
AcDbVertex
100
AcDb2dVertex
 10
5.796543327310818
 20
5.479133382116479
 30
0.0
  0
VERTEX
  5
20F
330
159
100
AcDbEntity
  8
DM
 62
     5
100
AcDbVertex
100
AcDb2dVertex
 10
5.76654332731039
 20
5.479133382116479
 30
0.0
 42
-0.4142135623730951
  0
VERTEX
  5
210
330
159
100
AcDbEntity
  8
DM
 62
     5
100
AcDbVertex
100
AcDb2dVertex
 10
5.756543327310399
 20
5.48913338211647
 30
0.0
  0
VERTEX
  5
211
330
159
100
AcDbEntity
  8
DM
 62
     5
100
AcDbVertex
100
AcDb2dVertex
 10
5.75654332731074
 20
6.069133382116625
 30
0.0
 42
-0.4142135623631056
  0
VERTEX
  5
212
330
159
100
AcDbEntity
  8
DM
 62
     5
100
AcDbVertex
100
AcDb2dVertex
 10
5.766543327310618
 20
6.079133382116616
 30
0.0
  0
VERTEX
  5
213
330
159
100
AcDbEntity
  8
DM
 62
     5
100
AcDbVertex
100
AcDb2dVertex
 10
5.8765433273112
 20
6.079133382116616
 30
0.0
 42
-0.4142135623631056
  0
VERTEX
  5
214
330
159
100
AcDbEntity
  8
DM
 62
     5
100
AcDbVertex
100
AcDb2dVertex
 10
5.886543327311191
 20
6.069133382116625
 30
0.0
  0
VERTEX
  5
215
330
159
100
AcDbEntity
  8
DM
 62
     5
100
AcDbVertex
100
AcDb2dVertex
 10
5.886543327310595
 20
6.010258559581153
 30
0.0
 42
0.4814802620108722
  0
VERTEX
  5
216
330
159
100
AcDbEntity
  8
DM
 62
     5
100
AcDbVertex
100
AcDb2dVertex
 10
5.898765549374401
 20
6.000508599713084
 30
0.0
 42
0.3500011112487551
  0
VERTEX
  5
217
330
159
100
AcDbEntity
  8
DM
 62
     5
100
AcDbVertex
100
AcDb2dVertex
 10
5.941543327310572
 20
6.054133382116638
 30
0.0
  0
VERTEX
  5
218
330
159
100
AcDbEntity
  8
DM
 62
     5
100
AcDbVertex
100
AcDb2dVertex
 10
5.941543327310686
 20
6.104133382116593
 30
0.0
 42
0.4142135623764248
  0
VERTEX
  5
219
330
159
100
AcDbEntity
  8
DM
 62
     5
100
AcDbVertex
100
AcDb2dVertex
 10
5.911543327310599
 20
6.134133382116566
 30
0.0
  0
VERTEX
  5
21A
330
159
100
AcDbEntity
  8
DM
 62
     5
100
AcDbVertex
100
AcDb2dVertex
 10
5.786543327310372
 20
6.134133382116452
 30
0.0
 42
-0.4142135623736502
  0
VERTEX
  5
21B
330
159
100
AcDbEntity
  8
DM
 62
     5
100
AcDbVertex
100
AcDb2dVertex
 10
5.756543327310399
 20
6.164133382116425
 30
0.0
  0
VERTEX
  5
21C
330
159
100
AcDbEntity
  8
DM
 62
     5
100
AcDbVertex
100
AcDb2dVertex
 10
5.756543327310684
 20
6.284633382116417
 30
0.0
 42
-0.4142135623739274
  0
VERTEX
  5
21D
330
159
100
AcDbEntity
  8
DM
 62
     5
100
AcDbVertex
100
AcDb2dVertex
 10
5.776543327310609
 20
6.304633382116399
 30
0.0
  0
VERTEX
  5
21E
330
159
100
AcDbEntity
  8
DM
 62
     5
100
AcDbVertex
100
AcDb2dVertex
 10
5.794156242321268
 20
6.3046333821163
 30
0.0
 42
-0.1989123673786134
  0
VERTEX
  5
21F
330
159
100
AcDbEntity
  8
DM
 62
     5
100
AcDbVertex
100
AcDb2dVertex
 10
5.80829837794511
 20
6.298775517740033
 30
0.0
  0
VERTEX
  5
220
330
159
100
AcDbEntity
  8
DM
 62
     5
100
AcDbVertex
100
AcDb2dVertex
 10
5.859511581380155
 20
6.247562314304401
 30
0.0
 42
0.1989123673796578
  0
VERTEX
  5
221
330
159
100
AcDbEntity
  8
DM
 62
     5
100
AcDbVertex
100
AcDb2dVertex
 10
5.866582649192086
 20
6.244633382116226
 30
0.0
  0
VERTEX
  5
222
330
159
100
AcDbEntity
  8
DM
 62
     5
100
AcDbVertex
100
AcDb2dVertex
 10
6.04637165494535
 20
6.244633382116336
 30
0.0
 42
-0.1628603417904191
  0
VERTEX
  5
223
330
159
100
AcDbEntity
  8
DM
 62
     5
100
AcDbVertex
100
AcDb2dVertex
 10
6.052389805176861
 20
6.242619737216806
 30
0.0
  0
VERTEX
  5
224
330
159
100
AcDbEntity
  8
DM
 62
     5
100
AcDbVertex
100
AcDb2dVertex
 10
6.084738876615919
 20
6.218242963416933
 30
0.0
 42
1.000000000000003
  0
VERTEX
  5
225
330
159
100
AcDbEntity
  8
DM
 62
     5
100
AcDbVertex
100
AcDb2dVertex
 10
6.120847778004989
 20
6.266161094019899
 30
0.0
  0
VERTEX
  5
226
330
159
100
AcDbEntity
  8
DM
 62
     5
100
AcDbVertex
100
AcDb2dVertex
 10
6.07246552434655
 20
6.302619737216797
 30
0.0
 42
0.1628603417889604
  0
VERTEX
  5
227
330
159
100
AcDbEntity
  8
DM
 62
     5
100
AcDbVertex
100
AcDb2dVertex
 10
6.066447374115004
 20
6.304633382116172
 30
0.0
  0
VERTEX
  5
228
330
159
100
AcDbEntity
  8
DM
 62
     5
100
AcDbVertex
100
AcDb2dVertex
 10
5.891435462934513
 20
6.304633382116144
 30
0.0
 42
-0.1989123673775688
  0
VERTEX
  5
229
330
159
100
AcDbEntity
  8
DM
 62
     5
100
AcDbVertex
100
AcDb2dVertex
 10
5.884364395122592
 20
6.307562314304242
 30
0.0
  0
VERTEX
  5
22A
330
159
100
AcDbEntity
  8
DM
 62
     5
100
AcDbVertex
100
AcDb2dVertex
 10
5.840722259498431
 20
6.35120444992819
 30
0.0
 42
-0.1989123673759123
  0
VERTEX
  5
22B
330
159
100
AcDbEntity
  8
DM
 62
     5
100
AcDbVertex
100
AcDb2dVertex
 10
5.837793327310354
 20
6.358275517740104
 30
0.0
  0
VERTEX
  5
22C
330
159
100
AcDbEntity
  8
DM
 62
     5
100
AcDbVertex
100
AcDb2dVertex
 10
5.837793327310581
 20
6.407133382116249
 30
0.0
 42
-0.4142135623730951
  0
VERTEX
  5
22D
330
159
100
AcDbEntity
  8
DM
 62
     5
100
AcDbVertex
100
AcDb2dVertex
 10
5.847793327310572
 20
6.41713338211624
 30
0.0
  0
VERTEX
  5
22E
330
159
100
AcDbEntity
  8
DM
 62
     5
100
AcDbVertex
100
AcDb2dVertex
 10
6.130300047281597
 20
6.417133382116359
 30
0.0
 42
0.1227845609018646
  0
VERTEX
  5
22F
330
159
100
AcDbEntity
  8
DM
 62
     5
100
AcDbVertex
100
AcDb2dVertex
 10
6.134994762909517
 20
6.41830390618778
 30
0.0
  0
VERTEX
  5
230
330
159
100
AcDbEntity
  8
DM
 62
     5
100
AcDbVertex
100
AcDb2dVertex
 10
6.218207823997221
 20
6.462549075604837
 30
0.0
 42
0.7812856265068665
  0
VERTEX
  5
231
330
159
100
AcDbEntity
  8
DM
 62
     5
100
AcDbVertex
100
AcDb2dVertex
 10
6.210831627939231
 20
6.492133382116286
 30
0.0
  0
VERTEX
  5
232
330
159
100
AcDbEntity
  8
DM
 62
     5
100
AcDbVertex
100
AcDb2dVertex
 10
6.007793327311109
 20
6.492133382116286
 30
0.0
 42
-0.41421356237587
  0
VERTEX
  5
233
330
159
100
AcDbEntity
  8
DM
 62
     5
100
AcDbVertex
100
AcDb2dVertex
 10
5.977793327311136
 20
6.522133382116145
 30
0.0
  0
VERTEX
  5
234
330
159
100
AcDbEntity
  8
DM
 62
     5
100
AcDbVertex
100
AcDb2dVertex
 10
5.977793327311136
 20
6.535133382116292
 30
0.0
 42
0.4142135623719852
  0
VERTEX
  5
235
330
159
100
AcDbEntity
  8
DM
 62
     5
100
AcDbVertex
100
AcDb2dVertex
 10
5.947793327311163
 20
6.565133382116151
 30
0.0
  0
VERTEX
  5
236
330
159
100
AcDbEntity
  8
DM
 62
     5
100
AcDbVertex
100
AcDb2dVertex
 10
5.721543327310772
 20
6.565133382116151
 30
0.0
 42
0.4142135623730951
  0
VERTEX
  5
237
330
159
100
AcDbEntity
  8
DM
 62
     5
100
AcDbVertex
100
AcDb2dVertex
 10
5.681543327310809
 20
6.525133382116187
 30
0.0
  0
VERTEX
  5
238
330
159
100
AcDbEntity
  8
DM
 62
     5
100
AcDbVertex
100
AcDb2dVertex
 10
5.681543327310581
 20
5.359133382116134
 30
0.0
 42
0.4142135623739276
  0
VERTEX
  5
239
330
159
100
AcDbEntity
  8
DM
 62
     5
100
AcDbVertex
100
AcDb2dVertex
 10
5.721543327310545
 20
5.319133382116511
 30
0.0
  0
SEQEND
  5
23A
330
159
100
AcDbEntity
  8
DM
 62
     5
  0
TEXT
  5
1C1
330
1F
100
AcDbEntity
  8
TX
100
AcDbText
 10
5.126142068624819
 20
4.564344677210726
 30
0.0
 40
0.09375
  1
SCALE : 1" = 1"
 11
5.126142068624819
 21
4.658094677210726
 31
0.0
100
AcDbText
 73
     3
  0
TEXT
  5
1C2
330
1F
100
AcDbEntity
  8
0
 62
     3
100
AcDbText
 10
5.126142068624819
 20
4.84556636257281
 30
0.0
 40
0.140625
  1
SOCKET RACEWAY #1984
100
AcDbText
  0
POLYLINE
  5
1C3
330
1F
100
AcDbEntity
  8
0
 62
     5
100
AcDb2dPolyline
 66
     1
 10
0.0
 20
0.0
 30
0.0
 40
0.028125
 41
0.028125
  0
VERTEX
  5
23B
330
1C3
100
AcDbEntity
  8
0
 62
     5
100
AcDbVertex
100
AcDb2dVertex
 10
5.032406225943777
 20
4.751830519891768
 30
0.0
  0
VERTEX
  5
23C
330
1C3
100
AcDbEntity
  8
0
 62
     5
100
AcDbVertex
100
AcDb2dVertex
 10
8.051812475943776
 20
4.751830519891768
 30
0.0
  0
SEQEND
  5
23D
330
1C3
100
AcDbEntity
  8
0
 62
     5
  0
ENDSEC
  0
SECTION
  2
OBJECTS
  0
DICTIONARY
  5
C
330
0
100
AcDbDictionary
  3
ACAD_GROUP
350
D
  3
ACAD_LAYOUT
350
1A
  3
ACAD_MLINESTYLE
350
17
  3
ACAD_PLOTSETTINGS
350
19
1001
ACAD
1000
TREAT_AS_HARD
1070
     0
  0
DICTIONARY
  5
1C8
330
1F
100
AcDbDictionary
  3
ACAD_LAYOUTSELFREF
350
1C9
  0
DICTIONARY
  5
1C6
330
1B
100
AcDbDictionary
  3
ACAD_LAYOUTSELFREF
350
1C7
  0
DICTIONARY
  5
D
102
{ACAD_REACTORS
330
C
102
}
330
C
100
AcDbDictionary
1001
ACAD
1000
TREAT_AS_HARD
1070
     0
  0
DICTIONARY
  5
1A
102
{ACAD_REACTORS
330
C
102
}
330
C
100
AcDbDictionary
1001
ACAD
1000
TREAT_AS_HARD
1070
     0
  0
DICTIONARY
  5
17
102
{ACAD_REACTORS
330
C
102
}
330
C
100
AcDbDictionary
  3
STANDARD
350
18
1001
ACAD
1000
TREAT_AS_HARD
1070
     0
  0
DICTIONARY
  5
19
102
{ACAD_REACTORS
330
C
102
}
330
C
100
AcDbDictionary
1001
ACAD
1000
TREAT_AS_HARD
1070
     0
  0
XRECORD
  5
1C9
102
{ACAD_REACTORS
330
1C8
102
}
330
1C8
100
AcDbXrecord
340
1F
  0
XRECORD
  5
1C7
102
{ACAD_REACTORS
330
1C6
102
}
330
1C6
100
AcDbXrecord
340
1B
  0
MLINESTYLE
  5
18
102
{ACAD_REACTORS
330
17
102
}
330
17
100
AcDbMlineStyle
  2
STANDARD
 70
     0
  3

 62
   256
 51
90.0
 52
90.0
 71
     2
 49
0.5
 62
   256
  6
BYLAYER
 49
-0.5
 62
   256
  6
BYLAYER
  0
ENDSEC
  0
EOF
